Категории
Ожидаемые релизы
Обитель зла: Последняя глава / Resident Evil: The Final Chapter (2017)
Защитники (2016)
Рыцари Круглого стола: Король Артур / Knights of the Roundtable: King Arthur (2017)
Дивергент, глава 4 / Ascendant (2017)
Прототип / The Prototype (2017)
Торренты пользователей
Shastro - Satsang [2017, MP3, 320 kbps]
VA - Goddess of Victory vol.1-3 [2015-2016, MP3, 320 kbps]
Последняя фантазия XV: Меч Короля / Kingsglaive - Final Fantasy XV / Меч Короля - Остання Фантазія XV [2016, UKR, BDRip] | L
Истории монстров / Bakemonogatari / Історії монстрів (сезон 1, серии: 1-15 (15)) [2009, UKR, BDRip 720p] | L2
Сборник анимированных аватарок [2017, GIF, 5468 шт.]
Партнёры
Стать партнёром
Название

Торрент Шерлок / Sherlock (сезон 4, серии 1(3)) [2017, HDTVRip 1080] | D

Скачать Торрент  Подписка на уведомления
Хеш 1b888102fb5de3ae19cb13fb02c7c2c4f1348387
Категория Видео-->Зарубежные сериалы
Жанры Детектив
Время раздачи круглосуточно
Описание Название: Шерлок

В оригинале: Sherlock

Год: 2017

Сезон: 4

Серии: 1

Всего в сезоне серий: 3

В ролях: Бенедикт Камбербэтч, Мартин Фриман, Руперт Грейвз, Уна Стаббс, Лу Брили, Зои Телфорд, Питер Брук, Джемма Чан, Виннет Робинсон, Джини Спар

Режиссер: Пол МакГиган, Ник Харран, Коки Гидройч

Описание:

Семейная жизнь Джона Ватсона и Мэри напоминает идиллию, ведь ко всему прочему, они теперь воспитывают наследника. Этот факт вносит свои коррективы в их с Шерлоком взаимоотношения. Шерлок сосредоточен, он в ожидании новых знаков от Мориарти, живого или мертвого. Но все это не мешает ему продолжать блестяще раскрывать таинственный преступления, с которыми не может справится Скотланд-Ярд. И вот однажды, помогая полицейским раскрыть одно сложное дело, Шерлок натыкается на странную деталь: кто-то методично уничтожает статуи бывшего премьер-министра Маргарет Тэтчер. Может быть это просто сумасшедший? А может быть опасный преступник - гений? И как с этим всем связано прошлое Мэри Ватсон?

Выпущено:  Великобритания

Продолжительность: 01:30:00

Перевод: Дублированный [D]

Формат: MPEG-TS

Качество: HDTVRip 1080

Видео: 1920x1080 (16:9), 25 fps, H264 ~4.8 Mbps avg

Аудио: 48 kHz, MPEG2, 2/0 (L,R) ch, ~224 kbps avg

Релиз группы:

Студия перевода: Неизвестно



Дополнительно: MediaInfo:

Видео
Идентификатор                            : 1902 (0x76E)
Идентификатор меню                       : 92 (0x5C)
Формат                                   : AVC
Формат/Информация                        : Advanced Video Codec
Профиль формата                          : High@L4
Параметр CABAC формата                   : Да
Параметр ReFrames формата                : 3 кадра
Идентификатор кодека                     : 27
Продолжительность                        : 1 ч. 28 м.
Битрейт                                  : 4940 Кбит/сек
Ширина                                   : 1920 пикселей
Высота                                   : 1080 пикселей
Соотношение сторон                       : 16:9
Частота кадров                           : 25,000 кадров/сек
Стандарт вещания                         : Component
Цветовое пространство                    : YUV
Субдискретизация насыщенности            : 4:2:0
Битовая глубина                          : 8 бит
Тип развёртки                            : Чересстрочная
Метод сохранения типа развёртки          : Раздельные поля
Порядок развёртки                        : Верхнее поле первое
Бит/(Пиксели*Кадры)                      : 0.095
Размер потока                            : 3,05 Гбайт (91%)
Цветовой диапазон                        : Limited
Основные цвета                           : BT.709
Характеристики трансфера                 : BT.709
Коэффициенты матрицы                     : BT.709

Аудио
Идентификатор                            : 2902 (0xB56)
Идентификатор меню                       : 92 (0x5C)
Формат                                   : MPEG Audio
Версия формата                           : Version 1
Профиль формата                          : Layer 2
Идентификатор кодека                     : 3
Продолжительность                        : 1 ч. 28 м.
Вид битрейта                             : Постоянный
Битрейт                                  : 224 Кбит/сек
Каналы                                   : 2 канала
Частота                                  : 48,0 КГц
Метод сжатия                             : С потерями
Задержка видео                           : -120 мс.
Размер потока                            : 142 Мбайт (4%)
Язык                                     : Russian

Текст
Идентификатор                            : 33 (0x21)-888
Идентификатор меню                       : 92 (0x5C)
Формат                                   : Teletext Subtitle
Язык                                     : Russian
IMDB / Кинопоиск
Скриншоты
Модерация
На доработке
Не оформлено

В раздаче отсутствуют необходимые параметры. Ознакомьтесь с правилами оформления раздач

*Укажите рейтинги КП/imdb
*Укажите режиссера
*Укажите страну выпуска/производства
*Под спойлером укажите характеристику параметров видео (МИ) - полный отчет программы МедиаИнфо
*Укажите студию перевода
* Создайте сэмпл из раздаваемого материала
модератор: aldair
02.01.2017 15:48:09
Рейтинг
  • Currently 10.00/10
Оценка: 10.0 из 10.0 (Всего: 4)
Поделиться с друзьями
Нравится
Размер 3.36 GB (3602550752 байт)
Показать/Скрыть файлы
Добавлен 02.01.2017 02:14:45
Аплоадер miron120
Скачали 1 раз
Пиры сиды: 0, личеры: 0 = 0 Пиры
Сид был замечен 3 дня назад
Скачать
Скачать торрент Шерлок / Sherlock (сезон 4, серии 1(3)) [2017, HDTVRip 1080] | D

загрузка...

Комментариев нет...


Панель пользователя
Поиск торрентов
Радио
Игра на бонусы
Результаты конкурсов
Сотрудничество
Голосуй за нас!
Голосуй за нас каждые сутки и получай 50 бонусов!
Пожертвовать
Форум
Топики: 15,050
Ответы: 322,436
Топики/Ответы: 5%
Последние торренты
 Windows 10 v.1607 x86/x64 -20in1- KMS-ac...
Добавлен 23.01.2017 в 20:19:44
 Сказания Зестирии / Tales of Zestiria th...
Добавлен 23.01.2017 в 20:16:45
 Военная хроника маленькой девочки / Youj...
Добавлен 23.01.2017 в 20:14:13
 Один против всех (серии 1-2(16)) [2017, ...
Добавлен 23.01.2017 в 20:09:48
 Три икса: Мировое господство / xXx: Retu...
Добавлен 23.01.2017 в 19:49:07
 Королевский блеск / Royal Flash (1975) D...
Добавлен 23.01.2017 в 19:46:22
 Красиво уйти / Going in Style (1979) DVD...
Добавлен 23.01.2017 в 18:54:27
Материалы сайта предназначены для лиц 18 лет и старше.